<svg xmlns="http://www.w3.org/2000/svg"><defs><font horiz-adv-x="1024"><font-face ascent="960" descent="-64" units-per-em="1024"/><missing-glyph horiz-adv-x="1024"/><glyph d="" horiz-adv-x="512" unicode="&#x20;"/><glyph d="M983.04 752.998c-34.714-15.411-71.936-25.754-111.053-30.464 39.936 23.91 70.605 61.798 84.992 106.906-37.325-22.118-78.694-38.246-122.675-46.899-35.277 37.581-85.504 61.03-141.107 61.03-106.752 0-193.28-86.528-193.28-193.229 0-15.155 1.69-29.901 5.018-44.032-160.614 8.038-303.053 84.992-398.336 201.933-16.691-28.518-26.266-61.747-26.266-97.178 0-67.072 34.15-126.208 86.016-160.87-31.693 1.024-61.491 9.677-87.552 24.166 0-.819 0-1.587 0-2.406 0-93.645 66.662-171.725 155.034-189.542-16.179-4.403-33.28-6.758-50.944-6.758-12.442 0-24.525 1.178-36.352 3.43 24.576-76.8 96-132.659 180.531-134.195-66.15-51.866-149.453-82.739-240.026-82.739-15.616 0-30.976.922-46.08 2.714 85.504-54.835 187.085-86.835 296.294-86.835 355.482 0 549.888 294.502 549.888 549.939 0 8.346-.154 16.691-.563 24.986 37.786 27.238 70.502 61.286 96.461 100.045z" unicode="&#xe600;"/><glyph d="M768 761.395h-146.227c-17.306 0-36.608-22.733-36.608-53.197v-105.574h182.835v-150.528h-182.835v-452.096h-172.646v452.045h-156.518v150.579h156.518v88.576c0 127.027 88.166 230.4 209.203 230.4h146.278v-160.205z" unicode="&#xe601;"/><glyph d="M640 810.667h-384c-35.413 0-65.707-21.547-78.507-52.053l-128.64-300.8c-3.84-9.813-6.187-20.267-6.187-31.147v-81.707l.427-.427-.427-3.2c0-47.147 38.187-85.333 85.333-85.333h269.44l-40.747-194.987c-.853-4.267-1.493-8.747-1.493-13.44 0-17.707 7.253-33.707 18.773-45.227l45.44-45.013 280.96 280.96c15.36 15.573 24.96 36.907 24.96 60.373v426.667c0 47.147-38.187 85.333-85.333 85.333zM810.667 810.667v-512h170.667v512h-170.667z" unicode="&#xe602;"/><glyph d="M42.667 42.667h170.667v512h-170.667v-512zM981.333 512c0 47.147-38.187 85.333-85.333 85.333h-269.44l40.747 194.987c.853 4.267 1.493 8.747 1.493 13.44 0 17.707-7.253 33.707-18.773 45.227l-45.44 45.013-280.96-280.96c-15.36-15.573-24.96-36.907-24.96-60.373v-426.667c0-47.147 38.187-85.333 85.333-85.333h384c35.413 0 65.707 21.547 78.507 52.053l128.64 300.8c3.84 9.813 6.187 20.267 6.187 31.147v81.707l-.427.427.427 3.2z" unicode="&#xe603;"/><glyph d="M512 682.667c0 23.467-19.2 42.667-42.667 42.667h-221.227l28.373 135.467c.64 3.2 1.067 6.613 1.067 10.027 0 13.227-5.333 25.173-14.08 33.92l-33.92 33.92-210.773-210.773c-11.52-11.52-18.773-27.52-18.773-45.227v-277.333c0-35.413 28.587-64 64-64h288c26.453 0 49.28 16 58.88 39.04l96.64 225.707c2.773 7.253 4.48 14.933 4.48 23.253v53.333zM960 512h-288c-26.453 0-49.28-16-58.88-39.04l-96.64-225.707c-2.773-7.253-4.48-14.933-4.48-23.253v-53.333c0-23.467 19.2-42.667 42.667-42.667h221.227l-28.373-135.467c-.64-3.2-1.067-6.613-1.067-10.027 0-13.227 5.333-25.173 14.08-33.92l33.92-33.92 210.773 210.773c11.52 11.52 18.773 27.52 18.773 45.227v277.333c0 35.413-28.587 64-64 64z" unicode="&#xe604;"/><glyph d="M512 896l-384-170.667v-256c0-237.013 163.627-458.027 384-512 220.373 53.973 384 274.987 384 512v256l-384 170.667zM426.667 213.334l-170.667 170.667 60.373 60.373 110.293-110.293 280.96 280.96 60.373-60.373-341.333-341.333z" unicode="&#xe605;"/><glyph d="M896 725.334v-597.333h85.333v597.333h-85.333zM725.333 128h85.333v597.333h-85.333v-597.333zM597.333 725.334h-512c-23.467 0-42.667-19.2-42.667-42.667v-512c0-23.467 19.2-42.667 42.667-42.667h512c23.467 0 42.667 19.2 42.667 42.667v512c0 23.467-19.2 42.667-42.667 42.667zM341.333 608c52.907 0 96-43.093 96-96 0-53.12-43.093-96-96-96s-96 42.88-96 96c0 52.907 43.093 96 96 96zM533.333 213.334h-384v32c0 64 128 96 192 96s192-32 192-96v-32z" unicode="&#xe606;"/><glyph d="M259.891 816.64c0-54.426-40.192-98.509-106.291-98.509-62.208 0-102.4 44.083-102.4 98.509 0 55.706 41.523 98.509 105.011 98.509s102.4-42.803 103.68-98.509zM56.422 6.451v633.856h197.018v-633.856h-197.018zM371.354 438.118c0 79.053-2.611 145.152-5.222 202.189h171.11l9.114-88.166h3.891c25.907 41.523 89.446 102.4 195.738 102.4 129.587 0 226.816-86.835 226.816-273.51v-374.63h-197.018v351.283c0 81.664-28.57 137.421-99.84 137.421-54.426 0-86.784-37.581-101.069-73.882-5.222-12.954-6.502-31.078-6.502-49.254v-365.568h-197.018v431.718z" unicode="&#xe607;"/><glyph d="M853.333 938.667h-682.667v-85.333h682.667v85.333zM170.667-85.333h682.667v85.333h-682.667v-85.333zM853.333 768h-682.667c-47.147 0-85.333-38.187-85.333-85.333v-512c0-47.147 38.187-85.333 85.333-85.333h682.667c47.147 0 85.333 38.187 85.333 85.333v512c0 47.147-38.187 85.333-85.333 85.333zM512 650.667c52.907 0 96-43.093 96-96 0-53.12-43.093-96-96-96s-96 42.88-96 96c0 52.907 43.093 96 96 96zM725.333 213.334h-426.667v64c0 71.04 142.293 106.667 213.333 106.667s213.333-35.627 213.333-106.667v-64z" unicode="&#xe608;"/><glyph d="M853.333 768h-682.667c-47.147 0-84.907-38.187-84.907-85.333l-.427-512c0-47.147 38.187-85.333 85.333-85.333h682.667c47.147 0 85.333 38.187 85.333 85.333v512c0 47.147-38.187 85.333-85.333 85.333zM853.333 597.334l-341.333-213.333-341.333 213.333v85.333l341.333-213.333 341.333 213.333v-85.333z" unicode="&#xe609;"/><glyph d="M896 682.667h-85.333v-384h-554.667v-85.333c0-23.467 19.2-42.667 42.667-42.667h469.333l170.667-170.667v640c0 23.467-19.2 42.667-42.667 42.667zM725.333 426.667v384c0 23.467-19.2 42.667-42.667 42.667h-554.667c-23.467 0-42.667-19.2-42.667-42.667v-597.333l170.667 170.667h426.667c23.467 0 42.667 19.2 42.667 42.667z" unicode="&#xe60a;"/><glyph d="M896 597.334v42.667l-128-85.333-128 85.333v-42.667l128-85.333 128 85.333zM938.667 810.667h-853.333c-47.147 0-85.333-38.187-85.333-85.333v-597.333c0-47.147 38.187-85.333 85.333-85.333h853.333c47.147 0 84.907 38.187 84.907 85.333l.427 597.333c0 47.147-38.187 85.333-85.333 85.333zM341.333 682.667c70.613 0 128-57.387 128-128 0-70.827-57.387-128-128-128s-128 57.173-128 128c0 70.613 57.387 128 128 128zM597.333 170.667h-512v42.667c0 85.333 170.667 132.267 256 132.267s256-46.933 256-132.267v-42.667zM938.667 426.667h-341.333v256h341.333v-256z" unicode="&#xe60b;"/><glyph d="M778.24 460.8c0-147.046-119.245-266.24-266.24-266.24-147.046 0-266.24 119.194-266.24 266.24 0 17.51 1.741 34.611 5.018 51.2h-179.098v-353.894c0-75.981 61.542-137.626 137.626-137.626h605.389c75.981 0 137.626 61.594 137.626 137.626v353.894h-179.046c3.226-16.589 4.966-33.69 4.966-51.2zM814.694 901.12h-605.389c-76.032 0-137.626-61.645-137.626-137.626v-149.094h222.925c48.179 68.096 127.59 112.64 217.395 112.64s169.216-44.544 217.395-112.64h222.925v149.094c0 75.981-61.645 137.626-137.626 137.626zM882.022 731.136c0-13.568-11.059-24.576-24.576-24.576h-73.677c-13.517 0-24.576 11.059-24.576 24.576v73.728c0 13.568 11.11 24.576 24.576 24.576h73.677c13.568 0 24.576-11.059 24.576-24.576v-73.728zM675.84 460.8c0 90.522-73.37 163.84-163.84 163.84s-163.84-73.318-163.84-163.84 73.37-163.84 163.84-163.84 163.84 73.318 163.84 163.84z" unicode="&#xe60c;"/><glyph d="M810.667 810.667h-597.76c-47.147 0-84.48-38.187-84.48-85.333l-.427-597.333c0-47.147 37.76-85.333 84.907-85.333h597.76c47.147 0 85.333 38.187 85.333 85.333v597.333c0 47.147-38.187 85.333-85.333 85.333zM810.667 298.667h-170.667c0-70.613-57.387-128-128-128s-128 57.387-128 128h-171.093v426.667h597.76v-426.667zM682.667 512h-85.333v128h-170.667v-128h-85.333l170.667-170.667 170.667 170.667z" unicode="&#xe60d;"/><glyph d="M668.373 768h-71.04v85.333h-170.667v-85.333h-71.04c-31.573 0-56.96-25.387-56.96-56.96v-156.373h210.56l45.44 85.333v-85.333h170.667v156.373c0 31.573-25.387 56.96-56.96 56.96zM554.667 405.334h85.333l-170.667-320v234.667h-85.333l125.227 234.667h-210.56v-497.707c0-31.36 25.387-56.96 56.96-56.96h312.96c31.36 0 56.96 25.387 56.96 56.96v497.707h-170.667v-149.333z" unicode="&#xe60e;"/><glyph d="M81.613 702.157c24.986-13.466 371.149-199.373 384.051-206.285 12.851-6.912 29.542-10.24 46.336-10.24 16.845 0 33.536 3.328 46.387 10.291 12.902 6.912 359.014 192.819 384 206.285 25.037 13.414 48.691 55.552 2.765 55.552h-866.253c-45.926 0-22.323-42.138 2.714-55.603zM952.986 599.757c-28.416-14.848-377.19-197.171-394.598-206.285s-29.542-10.291-46.387-10.291c-16.794 0-28.928 1.178-46.336 10.291s-366.234 191.488-394.598 206.285c-20.019 10.445-19.866-1.792-19.866-11.213s0-375.552 0-375.552c0-21.504 28.621-49.152 50.79-49.152h820.07c22.221 0 50.739 27.648 50.739 49.101 0 0 0 366.131 0 375.552 0 9.472.205 21.709-19.814 11.264z" unicode="&#xe60f;"/><glyph d="M825.813 510.507c-29.013 146.773-158.507 257.493-313.813 257.493-123.307 0-230.187-69.973-283.733-172.16-128.213-13.867-228.267-122.453-228.267-254.507 0-141.44 114.56-256 256-256h554.667c117.76 0 213.333 95.573 213.333 213.333 0 112.64-87.68 203.947-198.187 211.84zM597.333 384v-170.667h-170.667v170.667h-128l213.333 213.333 213.333-213.333h-128z" unicode="&#xe610;"/><glyph d="M512 416c52.907 0 96 42.88 96 96 0 52.907-43.093 96-96 96s-96-43.093-96-96c0-53.12 43.093-96 96-96zM704 245.334c0 64-128 96-192 96s-192-32-192-96v-32h384v32zM810.667 810.667h-597.333c-47.147 0-85.333-38.187-85.333-85.333v-597.333c0-47.147 38.187-85.333 85.333-85.333h597.333c47.147 0 85.333 38.187 85.333 85.333v597.333c0 47.147-38.187 85.333-85.333 85.333zM810.667 128h-597.333v597.333h597.333v-597.333z" unicode="&#xe611;"/><glyph d="M853.333 682.667h-170.667v85.333l-85.333 85.333h-170.667l-85.333-85.333v-85.333h-170.667c-47.147 0-84.907-38.187-84.907-85.333l-.427-469.333c0-47.147 38.187-85.333 85.333-85.333h682.667c47.147 0 85.333 38.187 85.333 85.333v469.333c0 47.147-38.187 85.333-85.333 85.333zM426.667 768h170.667v-85.333h-170.667v85.333zM448 192l-149.333 149.333 60.373 60.373 88.96-88.96 220.8 220.8 60.373-60.373-281.173-281.173z" unicode="&#xe612;"/><glyph d="M512 640v170.667h-426.667v-768h853.333v597.333h-426.667zM256 128h-85.333v85.333h85.333v-85.333zM256 298.667h-85.333v85.333h85.333v-85.333zM256 469.334h-85.333v85.333h85.333v-85.333zM256 640h-85.333v85.333h85.333v-85.333zM426.667 128h-85.333v85.333h85.333v-85.333zM426.667 298.667h-85.333v85.333h85.333v-85.333zM426.667 469.334h-85.333v85.333h85.333v-85.333zM426.667 640h-85.333v85.333h85.333v-85.333zM853.333 128h-341.333v85.333h85.333v85.333h-85.333v85.333h85.333v85.333h-85.333v85.333h341.333v-426.667zM768 469.334h-85.333v-85.333h85.333v85.333zM768 298.667h-85.333v-85.333h85.333v85.333z" unicode="&#xe613;"/><glyph d="M768 252.374c-32.427 0-61.653-12.587-83.84-32.853l-304 177.28c2.347 9.6 3.84 19.627 3.84 29.867s-1.493 20.267-3.84 29.867l300.8 175.573c22.827-21.333 53.333-34.56 87.04-34.56 70.613 0 128 57.387 128 128s-57.387 128-128 128-128-57.387-128-128c0-10.24 1.493-20.267 3.84-29.867l-300.8-175.573c-22.827 21.333-53.333 34.56-87.04 34.56-70.613 0-128-57.387-128-128s57.387-128 128-128c33.707 0 64.213 13.227 87.04 34.56l304-177.28c-2.133-8.96-3.413-18.347-3.413-27.947 0-68.693 55.68-124.373 124.373-124.373s124.373 55.68 124.373 124.373-55.68 124.373-124.373 124.373z" unicode="&#xe614;"/><glyph d="M847.923 796.774c-73.83 73.882-129.28 62.822-129.28 62.822l-554.291-554.291-51.712-243.866 243.866 51.712 554.24 554.24c0 0 11.11 55.45-62.822 129.382zM341.965 142.49l-83.098-17.92c-8.038 15.002-17.715 30.003-35.379 47.718-17.664 17.664-32.717 27.29-47.718 35.328l17.971 83.149 24.013 24.013c0 0 45.261-.922 96.307-51.968 51.098-51.098 52.019-96.358 52.019-96.358l-24.115-23.962z" unicode="&#xe615;"/><glyph d="M254.003-51.2c-68.403 0-132.454 28.979-178.739 75.315-89.6 89.6-114.637 246.067 11.008 371.712 73.677 73.574 368.589 368.486 515.789 515.686 52.275 52.275 118.733 72.448 182.426 55.347 62.515-16.691 113.818-67.942 130.56-130.509 17.05-63.693-3.174-130.202-55.398-182.426l-493.158-493.21c-28.16-28.16-59.955-44.851-91.955-48.179-31.642-3.328-61.85 6.861-83.046 28.006-38.4 38.349-43.827 110.541 19.968 174.285l346.368 346.47c14.234 14.182 37.325 14.182 51.558 0 14.234-14.234 14.234-37.325 0-51.558l-346.419-346.419c-29.952-29.952-32.717-58.573-19.968-71.322 5.581-5.53 14.08-8.09 23.859-7.066 15.002 1.587 32.102 11.315 48.077 27.29l493.158 493.158c33.843 33.843 46.797 73.626 36.506 112.077-10.138 37.837-41.165 68.864-79.002 79.002-38.451 10.291-78.234-2.714-112.077-36.506-147.149-147.2-442.061-442.112-515.686-515.686-96.051-96.051-73.062-206.592-11.059-268.646 62.054-62.003 172.595-85.043 268.698 11.059l515.738 515.686c14.182 14.234 37.325 14.234 51.507 0 14.234-14.234 14.234-37.325 0-51.507l-515.738-515.738c-60.774-60.826-128.768-86.323-192.973-86.323z" unicode="&#xe616;"/><glyph d="M768 163.84h-665.6v460.8h132.864c0 0 35.277 45.875 111.104 102.4h-295.168c-28.262 0-51.2-22.938-51.2-51.2v-563.2c0-28.314 22.938-51.2 51.2-51.2h768c28.314 0 51.2 22.886 51.2 51.2v191.795l-102.4-84.224v-56.371zM684.134 519.68v-181.76l339.866 266.291-339.866 255.949v-160.256c-412.774-.051-412.774-408.064-412.774-408.064 116.838 191.898 188.723 227.84 412.774 227.84z" unicode="&#xe617;"/><glyph d="M698.778 595.814c-6.758 18.176 181.248 186.112 71.578 322.15-25.702 31.795-112.691-152.371-236.288-235.725-68.147-45.978-226.867-143.872-226.867-197.99v-350.259c0-65.075 251.597-133.99 442.829-133.99 70.093 0 171.571 439.04 171.571 508.826 0 69.99-216.064 68.762-222.822 86.989zM256 590.95c-33.638 0-153.6-20.48-153.6-159.846v-248.218c0-139.366 119.962-154.675 153.6-154.675s-51.2 29.286-51.2 115.661v326.298c0 90.522 84.838 120.781 51.2 120.781z" unicode="&#xe618;"/><glyph d="M864 256c-45.16 0-85.92-18.738-115.012-48.83l-431.004 215.502c1.314 8.252 2.016 16.706 2.016 25.328s-.702 17.076-2.016 25.326l431.004 215.502c29.092-30.09 69.852-48.828 115.012-48.828 88.366 0 160 71.634 160 160s-71.634 160-160 160-160-71.634-160-160c0-8.622.704-17.076 2.016-25.326l-431.004-215.504c-29.092 30.09-69.852 48.83-115.012 48.83-88.366 0-160-71.636-160-160 0-88.368 71.634-160 160-160 45.16 0 85.92 18.738 115.012 48.828l431.004-215.502c-1.312-8.25-2.016-16.704-2.016-25.326 0-88.368 71.634-160 160-160s160 71.632 160 160c0 88.364-71.634 160-160 160z" unicode="&#xe619;"/><glyph d="M559.066 896c0 0-200.956 0-267.94 0-120.12 0-233.17-91.006-233.17-196.422 0-107.726 81.882-194.666 204.088-194.666 8.498 0 16.756.17 24.842.752-7.93-15.186-13.602-32.288-13.602-50.042 0-29.938 16.104-54.21 36.468-74.024-15.386 0-30.242-.448-46.452-.448-148.782.002-263.3-94.758-263.3-193.02 0-96.778 125.542-157.314 274.334-157.314 169.624 0 263.306 96.244 263.306 193.028 0 77.6-22.896 124.072-93.686 174.134-24.216 17.144-70.53 58.836-70.53 83.344 0 28.72 8.196 42.868 51.428 76.646 44.312 34.624 75.672 83.302 75.672 139.916 0 67.406-30.02 133.098-86.372 154.772h84.954l59.96 43.344zM465.48 240.542c2.126-8.972 3.284-18.206 3.284-27.628 0-78.2-50.392-139.31-194.974-139.31-102.842 0-177.116 65.104-177.116 143.3 0 76.642 92.126 140.444 194.964 139.332 24-.254 46.368-4.116 66.67-10.69 55.826-38.826 95.876-60.762 107.172-105.004zM300.818 532.224c-69.038 2.064-134.636 77.226-146.552 167.86-11.916 90.666 34.37 160.042 103.388 157.99 69.01-2.074 134.638-74.814 146.558-165.458 11.906-90.66-34.39-162.458-103.394-160.392zM832 704v192h-64v-192h-192v-64h192v-192h64v192h192v64z" unicode="&#xe61a;"/><glyph d="M512 422.4c145.067 0 260.267 115.2 260.267 260.267s-115.2 256-260.267 256c-145.067 0-260.267-115.2-260.267-260.267s115.2-256 260.267-256zM512 806.4c72.533 0 128-55.467 128-128 0-68.267-55.467-128-128-128s-128 55.467-128 128c0 72.533 55.467 128 128 128zM810.667 388.267c-12.8 29.867-55.467 55.467-110.933 12.8-72.533-59.733-187.733-59.733-187.733-59.733s-115.2 0-187.733 55.467c-55.467 42.667-93.867 17.067-110.933-12.8-25.6-51.2 4.267-76.8 68.267-119.467 55.467-34.133 132.267-46.933 179.2-55.467l-42.667-42.667c-59.733-59.733-115.2-115.2-153.6-153.6-21.333-21.333-21.333-59.733 0-85.333l8.533-8.533c21.333-21.333 59.733-21.333 85.333 0l153.6 166.4c59.733-59.733 115.2-115.2 153.6-153.6 21.333-21.333 59.733-21.333 85.333 0l8.533 8.533c21.333 21.333 21.333 59.733 0 85.333l-196.267 196.267c51.2 4.267 123.733 17.067 179.2 55.467 64 34.133 93.867 59.733 68.267 110.933z" unicode="&#xe61b;"/><glyph d="M575.87-64h-191.87v512h-128v176.45l128 .058-.208 103.952c0 143.952 39.034 231.54 208.598 231.54h141.176v-176.484h-88.23c-66.032 0-69.206-24.656-69.206-70.684l-.262-88.324h158.69l-18.704-176.45-139.854-.058-.13-512z" unicode="&#xe61c;"/><glyph d="M1024 765.582c-37.676-16.708-78.164-28.002-120.66-33.08 43.372 26 76.686 67.17 92.372 116.23-40.596-24.078-85.556-41.56-133.41-50.98-38.32 40.83-92.922 66.34-153.346 66.34-116.022 0-210.088-94.058-210.088-210.078 0-16.466 1.858-32.5 5.44-47.878-174.6 8.764-329.402 92.4-433.018 219.506-18.084-31.028-28.446-67.116-28.446-105.618 0-72.888 37.088-137.192 93.46-174.866-34.438 1.092-66.832 10.542-95.154 26.278-.02-.876-.02-1.756-.02-2.642 0-101.788 72.418-186.696 168.522-206-17.626-4.8-36.188-7.372-55.348-7.372-13.538 0-26.698 1.32-39.528 3.772 26.736-83.46 104.32-144.206 196.252-145.896-71.9-56.35-162.486-89.934-260.916-89.934-16.958 0-33.68.994-50.116 2.94 92.972-59.61 203.402-94.394 322.042-94.394 386.422 0 597.736 320.124 597.736 597.744 0 9.108-.206 18.168-.61 27.18 41.056 29.62 76.672 66.62 104.836 108.748z" unicode="&#xe61e;"/><glyph d="M512 853.334c-235.733 0-426.667-190.933-426.667-426.667s190.933-426.667 426.667-426.667 426.667 190.933 426.667 426.667-190.933 426.667-426.667 426.667zM512 725.334c70.613 0 128-57.387 128-128 0-70.827-57.387-128-128-128s-128 57.173-128 128c0 70.613 57.387 128 128 128zM512 119.467c-106.88 0-200.747 54.613-256 137.387 1.067 84.693 170.88 131.413 256 131.413s254.72-46.72 256-131.413c-55.253-82.773-149.12-137.387-256-137.387z" unicode="&#xe620;"/><glyph d="M853.333 853.334h-682.667c-47.147 0-84.907-38.187-84.907-85.333l-.427-768 170.667 170.667h597.333c47.147 0 85.333 38.187 85.333 85.333v512c0 47.147-38.187 85.333-85.333 85.333zM554.667 469.334h-85.333v256h85.333v-256zM554.667 298.667h-85.333v85.333h85.333v-85.333z" unicode="&#xe621;"/><glyph d="M622.293 597.334l-110.293-110.293-110.293 110.293-60.373-60.373 110.293-110.293-110.293-110.293 60.373-60.373 110.293 110.293 110.293-110.293 60.373 60.373-110.293 110.293 110.293 110.293-60.373 60.373zM512 853.334c-235.733 0-426.667-190.933-426.667-426.667s190.933-426.667 426.667-426.667 426.667 190.933 426.667 426.667-190.933 426.667-426.667 426.667zM512 85.334c-188.16 0-341.333 153.173-341.333 341.333s153.173 341.333 341.333 341.333 341.333-153.173 341.333-341.333-153.173-341.333-341.333-341.333z" unicode="&#xe622;"/><glyph d="M469.333 213.334h85.333v256h-85.333v-256zM512 853.334c-235.733 0-426.667-190.933-426.667-426.667s190.933-426.667 426.667-426.667 426.667 190.933 426.667 426.667-190.933 426.667-426.667 426.667zM512 85.334c-188.16 0-341.333 153.173-341.333 341.333s153.173 341.333 341.333 341.333 341.333-153.173 341.333-341.333-153.173-341.333-341.333-341.333zM469.333 554.667h85.333v85.333h-85.333v-85.333z" unicode="&#xe623;"/><glyph d="M42.667 42.667h938.667l-469.333 810.667-469.333-810.667zM554.667 170.667h-85.333v85.333h85.333v-85.333zM554.667 341.334h-85.333v170.667h85.333v-170.667z" unicode="&#xe624;"/><glyph d="M810.667 664.96l-60.373 60.373-238.293-238.293-238.293 238.293-60.373-60.373 238.293-238.293-238.293-238.293 60.373-60.373 238.293 238.293 238.293-238.293 60.373 60.373-238.293 238.293z" unicode="&#xe626;"/><glyph d="M128 202.667v-160h160l472.107 472.107-160 160-472.107-472.107zM883.413 638.08c16.64 16.64 16.64 43.733 0 60.373l-99.627 99.627c-16.64 16.64-43.733 16.64-60.373 0l-78.08-78.08 160-160 78.08 78.08z" unicode="&#xe627;"/><glyph d="M725.333 810.667h-512c-47.147 0-85.333-38.187-85.333-85.333v-597.333c0-47.147 38.187-85.333 85.333-85.333h597.333c47.147 0 85.333 38.187 85.333 85.333v512l-170.667 170.667zM512 128c-70.613 0-128 57.387-128 128s57.387 128 128 128 128-57.387 128-128-57.387-128-128-128zM640 554.667h-426.667v170.667h426.667v-170.667z" unicode="&#xe628;"/><glyph d="M256 213.334h128l85.333 170.667v256h-256v-256h128zM597.333 213.334h128l85.333 170.667v256h-256v-256h128z" unicode="&#xe629;"/><glyph d="M896 128v597.333c0 47.147-38.187 85.333-85.333 85.333h-597.333c-47.147 0-85.333-38.187-85.333-85.333v-597.333c0-47.147 38.187-85.333 85.333-85.333h597.333c47.147 0 85.333 38.187 85.333 85.333zM362.667 362.667l106.667-128.213 149.333 192.213 192-256h-597.333l149.333 192z" unicode="&#xe62a;"/><glyph d="M128 202.667v-160h160l472.107 472.107-160 160-472.107-472.107zM883.413 638.08c16.64 16.64 16.64 43.733 0 60.373l-99.627 99.627c-16.64 16.64-43.733 16.64-60.373 0l-78.08-78.08 160-160 78.08 78.08z" unicode="&#xe62b;"/><glyph d="M42.667 170.667v-128h128c0 70.613-57.387 128-128 128zM42.667 341.334v-85.333c117.76 0 213.333-95.573 213.333-213.333h85.333c0 164.907-133.76 298.667-298.667 298.667zM810.667 640h-597.333v-69.76c168.96-54.613 302.293-187.947 356.907-356.907h240.427v426.667zM42.667 512v-85.333c212.053 0 384-171.947 384-384h85.333c0 259.2-210.133 469.333-469.333 469.333zM896 810.667h-768c-47.147 0-85.333-38.187-85.333-85.333v-128h85.333v128h768v-597.333h-298.667v-85.333h298.667c47.147 0 85.333 38.187 85.333 85.333v597.333c0 47.147-38.187 85.333-85.333 85.333z" unicode="&#xe62c;"/><glyph d="M981.333 170.667v512c0 47.147-38.187 85.333-85.333 85.333h-768c-47.147 0-85.333-38.187-85.333-85.333v-512c0-47.147 38.187-85.333 85.333-85.333h768c47.147 0 85.333 38.187 85.333 85.333zM362.667 405.334l106.667-128.213 149.333 192.213 192-256h-597.333l149.333 192z" unicode="&#xe62d;"/><glyph d="M225 512c123.712 0 224-100.29 224-224 0-123.712-100.288-224-224-224s-224 100.288-224 224l-1 32c0 247.424 200.576 448 448 448v-128c-85.474 0-165.834-33.286-226.274-93.726-11.634-11.636-22.252-24.016-31.83-37.02 11.438 1.8 23.16 2.746 35.104 2.746zM801 512c123.71 0 224-100.29 224-224 0-123.712-100.29-224-224-224s-224 100.288-224 224l-1 32c0 247.424 200.576 448 448 448v-128c-85.474 0-165.834-33.286-226.274-93.726-11.636-11.636-22.254-24.016-31.832-37.02 11.44 1.8 23.16 2.746 35.106 2.746z" unicode="&#xe62f;"/><glyph d="M512 801.276l-344.834-737.276h689.668l-344.834 737.276zM512 960v0c22.07 0 44.14-14.882 60.884-44.648l437.072-871.112c33.49-59.532 5-108.24-63.302-108.24h-869.308c-68.304 0-96.79 48.708-63.304 108.24l437.074 871.112c16.744 29.766 38.814 44.648 60.884 44.648zM448 192c0 35.346 28.654 64 64 64s64-28.654 64-64c0-35.346-28.654-64-64-64s-64 28.654-64 64zM512 576c35.346 0 64-28.654 64-64l-20-192h-88l-20 192c0 35.346 28.654 64 64 64z" unicode="&#xe630;"/><glyph d="M325.274 325.734c6.707-18.176-181.248-186.061-71.578-322.099 25.702-31.846 112.691 152.32 236.288 235.725 68.147 45.978 226.816 143.923 226.816 197.99v350.208c0 65.126-251.546 134.042-442.778 134.042-70.093 0-171.622-439.04-171.622-508.826 0-69.99 216.115-68.762 222.874-87.04zM768 330.65c33.69 0 153.6 20.429 153.6 159.846v248.166c0 139.366-119.91 154.726-153.6 154.726-33.638 0 51.2-29.338 51.2-115.661v-326.298c0-90.522-84.838-120.781-51.2-120.781z" unicode="&#xe631;"/><glyph d="M251.699 778.086c-82.432 0-149.299-68.762-149.299-153.6s66.867-153.6 149.299-153.6c149.248 0 49.766-296.96-149.299-296.96v-71.629c355.226 0 494.438 675.789 149.299 675.789zM681.728 778.086c-82.432 0-149.299-68.762-149.299-153.6s66.867-153.6 149.299-153.6c149.248 0 49.766-296.96-149.299-296.96v-71.629c355.277 0 494.49 675.789 149.299 675.789z" unicode="&#xe632;"/><glyph d="M512 563.2c-84.787 0-153.6-68.813-153.6-153.6 0-84.838 68.813-153.6 153.6-153.6 84.838 0 153.6 68.762 153.6 153.6 0 84.787-68.762 153.6-153.6 153.6zM921.6 716.8h-122.829c-16.896 0-35.123 13.107-40.448 29.133l-31.744 95.283c-5.427 16.077-23.603 29.184-40.499 29.184h-348.16c-16.896 0-35.123-13.107-40.397-29.133l-31.846-95.334c-5.325-16.026-23.501-29.133-40.397-29.133h-122.88c-56.32 0-102.4-46.08-102.4-102.4v-460.8c0-56.32 46.08-102.4 102.4-102.4h819.2c56.371 0 102.4 46.08 102.4 102.4v460.8c0 56.32-46.029 102.4-102.4 102.4zM512 153.6c-141.414 0-256 114.586-256 256 0 141.363 114.586 256 256 256 141.363 0 256-114.637 256-256 0-141.414-114.637-256-256-256zM885.76 542.822c-19.763 0-35.789 16.026-35.789 35.84s16.026 35.84 35.789 35.84c19.814 0 35.84-16.026 35.84-35.84s-16.026-35.84-35.84-35.84z" unicode="&#xe633;"/><glyph d="M956.928 340.685l-88.422 78.848c-25.6 22.835-25.6 60.109 0 82.944l88.422 78.797c25.6 22.835 18.739 44.083-15.206 47.309l-117.197 11.11c-33.946 3.226-52.224 32.41-40.55 64.87l62.208 173.158c11.674 32.461-2.611 44.288-31.693 26.266l-138.291-85.504c-29.082-18.022-66.662-8.192-83.507 21.862l-50.125 89.395c-16.794 30.054-44.646 30.208-61.798.358l-46.541-80.998c-17.152-29.85-56.576-42.598-87.603-28.314l-81.92 37.632c-31.078 14.234-54.938-2.253-53.094-36.762l4.454-82.688c1.843-34.458-23.603-69.99-56.525-78.848l-79.104-21.248c-32.922-8.909-38.963-34.816-13.363-57.651l88.422-78.797c25.6-22.784 25.6-60.109 0-82.893l-88.422-78.746c-25.6-22.886-18.842-44.902 15.002-48.998l107.264-13.005c33.843-4.198 52.736-34.406 41.933-67.123l-55.04-166.81c-10.803-32.819 4.608-45.619 34.202-28.416l126.106 72.909c29.645 17.203 69.427 7.68 88.474-20.89l52.378-78.694c18.995-28.723 47.616-27.085 63.437 3.482l46.029 88.678c15.923 30.618 53.914 43.11 84.429 27.802l88.781-44.39c30.618-15.309 54.118.41 52.275 34.918l-4.454 82.688c-1.843 34.509 23.603 69.99 56.525 78.899l79.053 21.197c33.024 8.96 39.066 34.867 13.466 57.651zM563.2 246.016h-102.4v107.52h102.4v-107.52zM563.2 409.805h-102.4v266.24h102.4v-266.24z" unicode="&#xe634;"/><glyph d="M905.728 730.829c-25.702 152.474-164.864 254.31-310.733 227.379-145.92-26.88-269.005-144.179-243.302-296.653 5.581-32.819 20.89-84.224 39.066-121.088l-264.96-395.418c-9.779-14.592-15.309-40.909-12.39-58.419l17.05-100.915c2.97-17.51 19.098-29.286 35.84-26.214l77.619 14.285c16.794 3.123 38.042 17.869 47.309 32.819l105.728 170.547 70.912 13.107 122.317 198.554c40.243-7.117 97.894-4.71 131.994 1.587 145.971 26.931 209.306 187.955 183.552 340.429zM776.499 652.698c-40.141-59.853-81.05-17.664-138.394 24.32-57.293 41.933-109.312 67.738-69.171 127.59 40.141 59.904 119.091 74.496 176.435 32.512 57.344-41.933 71.27-124.57 31.13-184.422z" unicode="&#xe635;"/><glyph d="M35.328 392.602l69.786-17.306 52.531 82.534-99.84 24.73c-24.986 6.246-50.227-8.909-56.422-33.792-6.195-24.781 9.011-49.971 33.946-56.166zM946.227 379.29l-228.506-205.722-268.698 207.923c-5.12 3.994-11.008 6.81-17.306 8.397l-35.789 8.806-52.531-82.483 56.269-13.875 291.738-225.69c8.448-6.605 18.483-9.779 28.57-9.779 11.213 0 22.426 3.994 31.232 11.981l257.382 231.68c19.098 17.203 20.531 46.49 3.328 65.485-17.152 18.995-46.592 20.48-65.69 3.277zM444.621 605.133l250.214-160.205c21.094-13.466 49.152-7.885 63.437 12.646l257.434 370.79c14.592 21.094 9.318 49.92-11.827 64.512s-50.125 9.267-64.768-11.776l-231.834-333.926-251.75 161.178c-10.394 6.656-23.04 8.909-35.174 6.246s-22.63-9.984-29.235-20.429l-383.846-602.573c-13.824-21.606-7.373-50.176 14.336-63.898 7.731-4.915 16.384-7.219 24.934-7.219 15.411 0 30.464 7.578 39.322 21.504l358.758 563.149z" unicode="&#xe636;"/><glyph d="M204.902 307.2h414.771v-153.6l245.76 225.28-245.76 225.229v-153.6h-373.76v317.491h-143.411v-358.4c0-56.525 45.824-102.4 102.4-102.4z" unicode="&#xe637;"/><glyph d="M101.888 686.643c0-76.442 25.549-131.686 75.878-164.096 41.216-26.573 89.088-30.566 113.971-30.566 6.042 0 10.854.256 14.234.461 0 0-7.885-51.354 30.208-102.195l-1.741.051c-65.997 0-281.293-13.824-281.293-190.822 0-180.07 197.734-189.184 237.363-189.184 3.123 0 4.915.051 4.915.051.461 0 3.277-.102 8.09-.102 25.446 0 91.238 3.174 152.371 32.922 79.258 38.451 119.501 105.421 119.501 198.912 0 90.368-61.235 144.128-105.984 183.45-27.29 23.962-50.893 44.646-50.893 64.768 0 20.48 17.203 35.891 39.014 55.398 35.226 31.539 68.506 76.442 68.506 161.331 0 74.65-9.677 124.723-69.325 156.467 6.246 3.174 28.211 5.478 39.117 7.014 32.307 4.403 79.565 9.421 79.565 35.789v5.069h-235.418c-2.355-.051-238.08-8.806-238.08-224.717zM481.946 225.178c4.506-71.987-57.088-125.133-149.555-131.84-93.901-6.912-171.264 35.379-175.77 107.366-2.15 34.56 13.005 68.403 42.752 95.386 30.208 27.29 71.578 44.134 116.685 47.514 5.325.307 10.598.563 15.872.563 86.886 0 145.766-51.098 150.016-118.989zM420.454 735.949c23.091-81.254-11.776-166.195-67.328-181.862-6.4-1.792-13.005-2.714-19.661-2.714-50.944 0-101.376 51.507-120.064 122.47-10.445 39.885-9.626 74.701 2.355 108.237 11.776 32.922 32.922 55.245 59.546 62.72 6.4 1.843 13.056 2.714 19.712 2.714 61.44 0 100.966-25.498 125.44-111.565zM817.203 559.002v153.6h-97.28v-153.6h-153.6v-97.28h153.6v-153.6h97.28v153.6h153.6v97.28h-153.6z" unicode="&#xe638;"/><glyph d="M320 320v192h192l-256 256-256-256h192v-320h384l-128 128zM832 384v320h-384l128-128h128v-192h-192l256-256 256 256z" unicode="&#xe639;"/><glyph d="M0 676.571v36.571q0 8 5.143 13.143t13.143 5.143h176.571l40 95.429q8.571 21.143 30.857 36t45.143 14.857h182.857q22.857 0 45.143-14.857t30.857-36l40-95.429h176.571q8 0 13.143-5.143t5.143-13.143v-36.571q0-8-5.143-13.143t-13.143-5.143h-54.857v-541.714q0-47.429-26.857-82t-64.571-34.571h-475.429q-37.714 0-64.571 33.429t-26.857 80.857v544h-54.857q-8 0-13.143 5.143t-5.143 13.143zM146.286 116.571q0-12.571 4-23.143t8.286-15.429 6-4.857h475.429q1.714 0 6 4.857t8.286 15.429 4 23.143v541.714h-512v-541.714zM219.429 201.143v329.143q0 8 5.143 13.143t13.143 5.143h36.571q8 0 13.143-5.143t5.143-13.143v-329.143q0-8-5.143-13.143t-13.143-5.143h-36.571q-8 0-13.143 5.143t-5.143 13.143zM274.286 731.428h256l-27.429 66.857q-4 5.143-9.714 6.286h-181.143q-5.714-1.143-9.714-6.286zM365.714 201.143v329.143q0 8 5.143 13.143t13.143 5.143h36.571q8 0 13.143-5.143t5.143-13.143v-329.143q0-8-5.143-13.143t-13.143-5.143h-36.571q-8 0-13.143 5.143t-5.143 13.143zM512 201.143v329.143q0 8 5.143 13.143t13.143 5.143h36.571q8 0 13.143-5.143t5.143-13.143v-329.143q0-8-5.143-13.143t-13.143-5.143h-36.571q-8 0-13.143 5.143t-5.143 13.143z" horiz-adv-x="805" unicode="&#xf014;"/><glyph d="M0 237.714v475.429q0 68 48.286 116.286t116.286 48.286h475.429q36 0 66.857-14.286 8.571-4 10.286-13.143 1.714-9.714-5.143-16.571l-28-28q-8-8-18.286-4.571-13.143 3.429-25.714 3.429h-475.429q-37.714 0-64.571-26.857t-26.857-64.571v-475.429q0-37.714 26.857-64.571t64.571-26.857h475.429q37.714 0 64.571 26.857t26.857 64.571v72q0 7.429 5.143 12.571l36.571 36.571q8.571 8.571 20 4t11.429-16.571v-108.571q0-68-48.286-116.286t-116.286-48.286h-475.429q-68 0-116.286 48.286t-48.286 116.286zM365.714 219.428v164.571l384 384 164.571-164.571-384-384h-164.571zM420.571 329.143h54.857v-54.857h32l66.286 66.286-86.857 86.857-66.286-66.286v-32zM539.429 466.286q9.143-9.143 18.857.571l200 200q9.714 9.714.571 18.857t-18.857-.571l-200-200q-9.714-9.714-.571-18.857zM786.286 804.571l52.571 52.571q16 16 38.857 16t38.857-16l86.857-86.857q16-16 16-38.857t-16-38.857l-52.571-52.571z" unicode="&#xf044;"/><glyph d="M0 146.286v365.714q0 30.286 21.429 51.714t51.714 21.429h156.571q20.571 13.714 78.286 88.571 33.143 42.857 61.143 73.143 13.714 14.286 20.286 48.857t17.429 72.286 35.429 61.714q22.286 21.143 51.429 21.143 48 0 86.286-18.571t58.286-58 20-106.286q0-53.143-27.429-109.714h100.571q59.429 0 102.857-43.429t43.429-102.286q0-50.857-28-93.143 5.143-18.857 5.143-39.429 0-44-21.714-82.286 1.714-12 1.714-24.571 0-57.714-34.286-101.714.571-79.429-48.571-125.429t-129.714-46h-73.714q-54.857 0-108.286 12.857t-123.714 37.429q-66.286 22.857-78.857 22.857h-164.571q-30.286 0-51.714 21.429t-21.429 51.714zM73.143 182.857q0-14.857 10.857-25.714t25.714-10.857 25.714 10.857 10.857 25.714-10.857 25.714-25.714 10.857-25.714-10.857-10.857-25.714zM219.429 146.286h18.286q7.429 0 18-1.714t18.857-3.714 21.714-6.286 20-6.571 20.286-7.143 16.571-6q120.571-41.714 195.429-41.714h69.143q109.714 0 109.714 95.429 0 14.857-2.857 32 17.143 9.143 27.143 30t10 42-10.286 39.429q30.286 28.571 30.286 68 0 14.286-5.714 31.714t-14.286 27.143q18.286.571 30.571 26.857t12.286 46.286q0 29.143-22.286 51.143t-50.857 22h-201.143q0 33.143 27.429 91.143t27.429 91.714q0 56-18.286 82.857t-73.143 26.857q-14.857-14.857-21.714-48.571t-17.429-71.714-34-62.571q-12.571-13.143-44-52-2.286-2.857-13.143-17.143t-18-23.429-19.714-24.286-22.857-25.143-22-20.286-22.857-15.429-20.286-5.143h-18.286v-365.714z" unicode="&#xf087;"/><glyph d="M0 365.714v365.714q0 30.286 21.429 51.714t51.714 21.429h164.571q12.571 0 78.857 22.857 73.143 25.143 127.429 37.714t114.286 12.571h64q80 0 129.429-45.143t48.857-123.429v-2.857q34.286-44 34.286-101.714 0-12.571-1.714-24.571 21.714-38.286 21.714-82.286 0-20.571-5.143-39.429 28-42.286 28-93.143 0-58.857-43.429-102.286t-102.857-43.429h-100.571q27.429-56.571 27.429-109.714 0-67.429-20-106.286-20-39.429-58.286-58t-86.286-18.571q-29.143 0-51.429 21.143-19.429 18.857-30.857 46.857t-14.571 51.714-10 48.286-17.714 36.571q-27.429 28.571-61.143 72.571-57.714 74.857-78.286 88.571h-156.571q-30.286 0-51.714 21.429t-21.429 51.714zM73.143 694.857q0-14.857 10.857-25.714t25.714-10.857 25.714 10.857 10.857 25.714-10.857 25.714-25.714 10.857-25.714-10.857-10.857-25.714zM219.429 365.714h18.286q9.143 0 20.286-5.143t22.857-15.429 22-20.286 22.857-25.143 19.714-24.286 18-23.429 13.143-17.143q31.429-38.857 44-52 23.429-24.571 34-62.571t17.429-71.714 21.714-48.571q54.857 0 73.143 26.857t18.286 82.857q0 33.714-27.429 91.714t-27.429 91.143h201.143q28.571 0 50.857 22t22.286 51.143q0 20-12.286 46.286t-30.571 26.857q8.571 9.714 14.286 27.143t5.714 31.714q0 39.429-30.286 68 10.286 18.286 10.286 39.429t-10 42-27.143 30q2.857 17.143 2.857 32 0 48.571-28 72t-77.714 23.429h-73.143q-74.857 0-195.429-41.714-2.857-1.143-16.571-6t-20.286-7.143-20-6.571-21.714-6.286-18.857-3.714-18-1.714h-18.286v-365.714z" unicode="&#xf088;"/><glyph d="M0 438.857q0 71.429 38.286 118t108 46.571q38.857 0 73.143-12.571v213.714q0 59.429 43.429 102.857t102.286 43.429q60 0 103.429-43.143t43.429-103.143v-96.571q35.429-2.286 68-21.143 12 1.714 24.571 1.714 57.714 0 101.714-34.286 79.429.571 125.429-48.571t46-129.714q0-76-39.429-184-33.714-93.714-33.714-127.429v-164.571q0-30.286-21.429-51.714t-51.714-21.429h-365.714q-30.286 0-51.714 21.429t-21.429 51.714v164.571q0 5.714-2.571 12.286t-8 13.429-10.286 12.857-12.857 13.714-12.286 11.714-12.286 10.857-9.714 8q-42.286 37.143-73.714 57.143-12 7.429-35.429 18.857t-41.143 21.143-36 23.143-28.286 31.429-10 39.714zM73.143 438.857q0-13.714 79.429-51.429 25.143-13.714 37.143-21.143 36.571-22.857 82.857-64 46.286-40.571 60.571-57.714 32.571-39.429 32.571-80v-18.286h365.714v18.286q0 41.143 18.286 95.429t36.571 110.571 18.286 102.571q0 108-95.429 108-14.857 0-32-2.857-9.143 17.143-30 27.143t-42 10-39.429-10.286q-28.571 30.286-68 30.286-14.286 0-31.714-5.714t-27.143-14.286v189.143q0 29.714-21.714 51.429t-51.429 21.714q-29.143 0-51.143-22.286t-22-50.857v-329.143q-11.429 0-27.714 8.571t-31.429 18.857-38.857 18.857-48.286 8.571q-38.286 0-55.714-25.429t-17.429-66zM658.286 36.571q0-14.857 10.857-25.714t25.714-10.857 25.714 10.857 10.857 25.714-10.857 25.714-25.714 10.857-25.714-10.857-10.857-25.714z" unicode="&#xf0a6;"/><glyph d="M0 438.857q0 21.714 10 39.714t28.286 31.429 36 23.143 41.143 21.143 35.429 18.857q31.429 20 73.714 57.143 1.714 1.143 9.714 8t12.286 10.857 12.286 11.714 12.857 13.714 10.286 12.857 8 13.429 2.571 12.286v164.571q0 30.286 21.429 51.714t51.714 21.429h365.714q30.286 0 51.714-21.429t21.429-51.714v-164.571q0-33.714 33.714-127.429 39.429-108.571 39.429-181.143 0-81.143-44.286-131.429t-124.286-49.714l-2.857.571q-43.429-34.857-101.714-34.857-12.571 0-24.571 1.714-30.857-17.143-68-21.143v-96.571q0-60-43.429-103.143t-103.429-43.143q-58.857 0-102.286 43.429t-43.429 102.857v213.714q-30.857-12.571-73.143-12.571-69.143 0-107.714 46.571t-38.571 118zM73.143 438.857q0-40.571 17.429-66t55.714-25.429q24.571 0 48.286 8.571t38.857 18.857 31.429 18.857 27.714 8.571v-329.143q0-28.571 22-50.857t51.143-22.286q29.714 0 51.429 21.714t21.714 51.429v189.143q26.286-20 58.857-20 39.429 0 68 30.286 18.286-10.286 39.429-10.286t42 10 30 27.143q13.714-2.286 32-2.286 48.571 0 72 27.714t23.429 77.429q0 48-18.286 104.571t-36.571 110.857-18.286 95.429v18.286h-365.714v-18.286q0-20-6.857-38.571t-21.143-35.714-26.286-28.571-30.857-28q-5.143-4.571-8-6.857-46.286-41.143-82.857-64-12.571-8-38.857-21.714-1.714-.571-12.857-6t-20.571-10.571-20.286-11.429-17.429-12.286-6.571-10.571zM658.286 841.143q0-14.857 10.857-25.714t25.714-10.857 25.714 10.857 10.857 25.714-10.857 25.714-25.714 10.857-25.714-10.857-10.857-25.714z" unicode="&#xf0a7;"/><glyph d="M7.429 164.571q0 7.429 5.714 13.143l224.571 224.571-224.571 224.571q-5.714 5.714-5.714 13.143t5.714 13.143l28.571 28.571q5.714 5.714 13.143 5.714t13.143-5.714l266.286-266.286q5.714-5.714 5.714-13.143t-5.714-13.143l-266.286-266.286q-5.714-5.714-13.143-5.714t-13.143 5.714l-28.571 28.571q-5.714 5.714-5.714 13.143zM226.857 164.571q0 7.429 5.714 13.143l224.571 224.571-224.571 224.571q-5.714 5.714-5.714 13.143t5.714 13.143l28.571 28.571q5.714 5.714 13.143 5.714t13.143-5.714l266.286-266.286q5.714-5.714 5.714-13.143t-5.714-13.143l-266.286-266.286q-5.714-5.714-13.143-5.714t-13.143 5.714l-28.571 28.571q-5.714 5.714-5.714 13.143z" horiz-adv-x="585" unicode="&#xf101;"/><glyph d="M0 182.857v402.286q0 59.429 23.143 113.429t62.571 93.429 93.429 62.571 113.429 23.143h36.571q14.857 0 25.714-10.857t10.857-25.714v-73.143q0-14.857-10.857-25.714t-25.714-10.857h-36.571q-60.571 0-103.429-42.857t-42.857-103.429v-18.286q0-22.857 16-38.857t38.857-16h128q45.714 0 77.714-32t32-77.714v-219.429q0-45.714-32-77.714t-77.714-32h-219.429q-45.714 0-77.714 32t-32 77.714zM512 182.857v402.286q0 59.429 23.143 113.429t62.571 93.429 93.429 62.571 113.429 23.143h36.571q14.857 0 25.714-10.857t10.857-25.714v-73.143q0-14.857-10.857-25.714t-25.714-10.857h-36.571q-60.571 0-103.429-42.857t-42.857-103.429v-18.286q0-22.857 16-38.857t38.857-16h128q45.714 0 77.714-32t32-77.714v-219.429q0-45.714-32-77.714t-77.714-32h-219.429q-45.714 0-77.714 32t-32 77.714z" horiz-adv-x="951" unicode="&#xf10d;"/><glyph d="M-.571 646.857q0 6.286 1.714 9.143l2.286 3.429q8.571 10.857 32.571 10.857l156.571 1.143q6.857-1.143 13.143-3.714t9.143-4.857l2.857-1.714q9.143-6.286 13.714-18.286 11.429-28.571 26.286-59.143t23.429-46.571l9.143-16.571q16.571-34.286 32-59.429t27.714-39.143 23.714-22 19.429-8 15.429 2.857q1.143.571 2.857 2.857t6.857 12.571 7.714 26.857 5.429 46.286 0 71.429q-1.143 22.857-5.143 41.714t-8 26.286l-3.429 6.857q-14.286 19.429-48.571 24.571-7.429 1.143 2.857 13.714 9.714 10.857 21.714 17.143 30.286 14.857 136.571 13.714 46.857-.571 77.143-7.429 11.429-2.857 19.143-7.714t11.714-13.714 6-18.286 2-26-.571-31.429-1.429-40.286-.857-47.143q0-6.286-.571-24t-.286-27.429 2-23.143 6.571-22.286 12.857-14q4.571-1.143 9.714-2.286t14.857 6.286 21.714 19.714 29.714 38.286 38.857 61.429q34.286 59.429 61.143 128.571 2.286 5.714 5.714 10t6.286 6l2.286 1.714 2.857 1.429t7.429 1.714 11.429.286l164.571 1.143q22.286 2.857 36.571-1.429t17.714-9.429l3.429-5.714q13.143-36.571-85.714-168-13.714-18.286-37.143-48.571-44.571-57.143-51.429-74.857-9.714-23.429 8-46.286 9.714-12 46.286-46.857h.571l2.286-2.286q80.571-74.857 109.143-126.286 1.714-2.857 3.714-7.143t4-15.143-.286-19.429-14.286-15.714-33.714-7.143l-146.286-2.286q-13.714-2.857-32 2.857t-29.714 12.571l-11.429 6.857q-17.143 12-40 36.571t-39.143 44.286-34.857 33.143-32.286 8.857q-1.714-.571-4.571-2t-9.714-8.286-12.286-16.857-9.714-29.714-3.714-44.286q0-8.571-2-15.714t-4.286-10.571l-2.286-2.857q-10.286-10.857-30.286-12.571h-65.714q-40.571-2.286-83.429 9.429t-75.143 30.286-58.857 37.714-40.286 32.857l-14.286 13.714q-5.714 5.714-15.714 17.143t-40.857 52-60.571 86.286-70 120.571-74.571 155.429q-3.429 9.143-3.429 15.429z" horiz-adv-x="1097" unicode="&#xf189;"/></font>
</defs>
</svg>
